Skip to main content

Olivia Tremor Control Live at 40 Watt Club on 2005-04-15




Disc One:

01) A Peculiar Noise Called Train Director
02) Jumping Fences
03) Holiday Surprise 1,2,3
04) Define A Transparent Dream
05) Spring Succeeds
06) The Sylvan Screen
07) I'm Not Feeling Human
08) Courtyard
09) Shaving Spiders
10) California Demise 3

Disc Two:

01) Grass Canons
02) A Sleepy Company
03) A New Day
04) Take The Time To Turn Around
05) A Sunshine Fix
06) I Have Been Floated
07) Paranormal Echoes
08) Black Foliage (Itself)
09) Memories Of Jacqueline 1906
10) Green Typewriters
11) Hideaway
12) Gravity Car
13) Can You Come Down With Us?
14) E:) I Can Smell The Leaves
15) The Opera House


Collection OliviaTremorControl
Band/Artist Olivia Tremor Control
Venue 40 Watt Club
Location Athens, GA

Source AUD -> DAT
Lineage Neumann KM-184(DIN)> Lunatec V2> Nomad Jukebox 3
Taped by Sloan Simpson

Notes

Olivia Tremor Control - 4/15/05
40 Watt Club - Athens, GA

www.elephant6.com/bands/olivia.html

Bill Doss - guitar, bass, vocals
Will Cullen Hart - guitar, drums, vocals
Peter Erchick - keyboards, vocals
John Fernandes - bass, clarinet, violin, vocals
Eric Harris - drums, guitar
Julian Koster - banjo, bass, singing saw, vocals
Hannah Jones - drums
Scott Spillane - flugelhorn, vocals


Also with Elephant 6 Orchestra members, including among others:

Robbie Cucchiaro - euphonium
Derek Almstead - percussion
Matthew Houck - percussion
Nick Cervini - trumpet

* Remastered 12/08

Source: Neumann KM-184(DIN)> Lunatec V2> Nomad Jukebox 3
Transfer: Nomad Jukebox 3> Firewire> Cool Edit Pro(DSP*)> CDWave


Recorded and transferred by Sloan Simpson


length expanded size cdr WAVE problems fmt ratio filename
3:56.12 41658668 B --- -- ---xx flac 0.6693 otc2005-04-15t01.flac
2:48.48 29748140 B --- -- ---xx flac 0.6346 otc2005-04-15t02.flac
8:53.25 94080044 B --- -- ---xx flac 0.6312 otc2005-04-15t03.flac
2:43.43 28854380 B --- -- ---xx flac 0.6981 otc2005-04-15t04.flac
3:35.37 38013068 B --- -- ---xx flac 0.6224 otc2005-04-15t05.flac
6:10.40 65362124 B --- -- ---xx flac 0.6429 otc2005-04-15t06.flac
3:29.06 36881756 B --- -- ---xx flac 0.6317 otc2005-04-15t07.flac
3:53.04 41110652 B --- -- ---xx flac 0.6538 otc2005-04-15t08.flac
2:10.02 22936748 B --- -- ---xx flac 0.6723 otc2005-04-15t09.flac
3:01.64 32078972 B --- -- ---xx flac 0.6518 otc2005-04-15t10.flac
7:44.05 81861404 B --- -- ---xx flac 0.6241 otc2005-04-15t11.flac
3:31.45 37326284 B --- -- ---xx flac 0.6510 otc2005-04-15t12.flac
2:57.20 31269884 B --- -- ---xx flac 0.6756 otc2005-04-15t13.flac
1:40.69 17802332 B --- -- ---xx flac 0.7126 otc2005-04-15t14.flac
2:59.62 31721468 B --- -- ---xx flac 0.6438 otc2005-04-15t15.flac
4:26.12 46950668 B --- -- ---xx flac 0.6170 otc2005-04-15t16.flac
3:04.11 32483516 B --- -- ---xx flac 0.6735 otc2005-04-15t17.flac
3:22.43 35733980 B --- -- ---xx flac 0.6154 otc2005-04-15t18.flac
3:28.48 36804140 B --- -- ---xx flac 0.6911 otc2005-04-15t19.flac
3:01.71 32095436 B --- -- ---xx flac 0.6485 otc2005-04-15t20.flac
4:00.03 42343100 B --- -- ---xx flac 0.6148 otc2005-04-15t21.flac
4:33.34 48237212 B --- -- ---xx flac 0.6633 otc2005-04-15t22.flac
7:08.74 75673292 B --- -- ---xx flac 0.6528 otc2005-04-15t23.flac
2:41.44 28503932 B --- -- ---xx flac 0.5537 otc2005-04-15t24.flac
5:19.14 56304572 B --- -- ---xx flac 0.6483 otc2005-04-15t25.flac
100:42.11 1065835772 B 0.6445 (25 files)

Reviews

There are no reviews yet. Be the first one to write a review.
DOWNLOAD OPTIONS
Uploaded by
soniclovenoize
on 9/11/2010
Views
789
Favorites
1
PEOPLE ALSO FOUND
Olivia Tremor Control
by Olivia Tremor Control
620
0
0
Source: SBD -> Xenyx 802 -> Zoom H2
Olivia Tremor Control
by Olivia Tremor Control
498
0
0
Source: SBD->CASS->CDR->WAV->FLAC
Olivia Tremor Control
by Olivia Tremor Control
560
0
0
Source: SBD -> DAT
Olivia Tremor Control
by Olivia Tremor Control
1,251
0
0
Source: AUD > DAT
Olivia Tremor Control
by Olivia Tremor Control
1,902
0
0
Source: aud/sbd matrix, 2 pzm/sbd>p1>d8
Olivia Tremor Control
by Olivia Tremor Control
775
0
0
Source: AUD -> DAT
Olivia Tremor Control
by Olivia Tremor Control
730
0
0
Source: aiwa cm 30 stereo mic > sony DAT D3
Olivia Tremor Control
by Olivia Tremor Control
788
1
0
Source: AUD -> DAT
Olivia Tremor Control
by Olivia Tremor Control
592
2
0
Source: AUD > DAT
Olivia Tremor Control
by Olivia Tremor Control
857
1
0
Source: SBD > DAT